list stone england

Blue Gemstones: A List of 33 Blue Gems

Stones in ranges of the color blue are becoming more and more common and wanted. Blue is a color of stone that is acquired by all walks of life. Finding the proper color in the exact stone you want is sometimes a hard thing to do so …Henges - Ancient-Wisdom2019-12-11 · Henges: (Form and Function) There are around 100 Henges in the British Isles, dating from 3,200 BC. (1) Henges are prehistoric British constructions, generally consisting of a round flattened area surrounded by a boundary …

England Occupations Quarrying and Stone Working …

2014-9-4 · The traditional miller needed the skills of a millwright for the dressing and setting up of millstones critical to efficient usage. Different stones were used for different seeds, such as barley, wheat, oats, rye, or beans and for different products such as animal feeds or flour. The most widely used were the gritstones from the Peak District of north Derbyshire, but French stones …Stonehenge - HISTORY2019-2-21 · Stonehenge''s Multiphase Construction . Archaeologists believe England most iconic prehistoric ruin was built in several stages, with the earliest constructed 5,000 or more years ago.

England Dan Seals*

Analyzed: England Dan Seals / Stones [JP 1999 CD] DR Peak RMS Duration Track DR13 0.00 dB -16.93 dB 4:42 01-Stones (Dig A Little Deeper)Stone Keep Castles - History LearningThe only stone keep castle that is commonly considered to be more impressive than the White Tower is Rochester Castle, which stands at 113 feet tall. This makes it the tallest stone keep castle in England. The walls of this castle are between 11 and 13 feet thick. The castle was constructed by the same architect as the White Tower, Gundulf, who ...

Birthstones Chart | Harriet Kelsall

Gemstones are associated with each month and each precious stone has designated qualities associated with it. The Traditional Birthstone list contains older birthstones and is sometimes combined with the modern birthstone list. These …Blue Gemstones: A List of 33 Blue GemsStones in ranges of the color blue are becoming more and more common and wanted. Blue is a color of stone that is acquired by all walks of life. Finding the proper color in the exact stone you want is sometimes a hard thing to do so …

Stone Keep Castles

The only stone keep castle that is commonly considered to be more impressive than the White Tower is Rochester Castle, which stands at 113 feet tall. This makes it the tallest stone keep castle in England. The walls of this castle are between 11 and 13 feet thick. The castle was constructed by the same architect as the White Tower, Gundulf, who ...Red list of countries and territories - GOV.UK2021-10-4 · 15 December 2021. There are currently no countries or territories on the red list for travel to England. 14 December 2021. Angola, Botswana, Eswatini, Lesotho, Malawi, Mozambique, Namibia, Nigeria ...

Stone circles and barrows in England

2020-8-13 · An A-Z gazetteer of stone circles and other prehistoric monuments in England, a personal guide to ancient British sitesPeriods List (Historic England) - FISH2016-3-14 · Periods List (Historic England) List of the main archaeological and cultural periods of Britain. May vary compared to other period lists, this one has been developed by Historic England. Name Description Max date Min date Palaeolithic The period once referred to as the Old Stone Age. It is defined by the practice of hunting and

Stone Federation GB

2022-2-12 · Stone Federation GB - Find a Stone Federation Member. Member. Town. Profile. A & J Robertson (Granite) Ltd. Westhill. View Profile. A F Jones Stonemasons Ltd. Reading.Stones of England - Stonehenge - Stone Pages2018-5-22 · Here is the Heel Stone, a large upright unworked sarsen (hard sandstone) which lies immediately adjacent to the A344 road. It is worth noting that the nearest source of stones of the size represented by the large sarsens at Stonehenge is on the Marlborough Downs, about 30km (18mi) to the NE.

Stone Keep Castles

The only stone keep castle that is commonly considered to be more impressive than the White Tower is Rochester Castle, which stands at 113 feet tall. This makes it the tallest stone keep castle in England. The walls of this castle are between 11 and 13 feet thick. The castle was constructed by the same architect as the White Tower, Gundulf, who ...Stonehenge - HISTORY2019-2-21 · Stonehenge''s Multiphase Construction . Archaeologists believe England most iconic prehistoric ruin was built in several stages, with the earliest constructed 5,000 or more years ago.

A list of Precious and Semi Precious Gemstones and their ...

The traditional list of gemstones that are considered precious stones are: Diamond. Ruby. Sapphire. Emerald. All other gemstones are considered as being semi precious stones. These are old terms and not necessarily true these days. To …England Occupations Quarrying and Stone Working …2014-9-4 · The traditional miller needed the skills of a millwright for the dressing and setting up of millstones critical to efficient usage. Different stones were used for different seeds, such as barley, wheat, oats, rye, or beans and for different products such as animal feeds or flour. The most widely used were the gritstones from the Peak District of north Derbyshire, but French stones …

Stone Castles: The Grandest, Strongest Castles in the UK ...

Rochester Castle was one of the first castles built in England – and made in stone. A Stone Castle Building Spree. The first – and most famous – stone castle was the White Tower of the Tower of London. This stone tower was begun in 1070, and …A list of Precious and Semi Precious Gemstones and their ...The traditional list of gemstones that are considered precious stones are: Diamond. Ruby. Sapphire. Emerald. All other gemstones are considered as being semi precious stones. These are old terms and not necessarily true these days. To …

Stone Federation GB

2022-2-12 · Stone Federation GB - Find a Stone Federation Member. Member. Town. Profile. A & J Robertson (Granite) Ltd. Westhill. View Profile. A F Jones Stonemasons Ltd. Reading.The Best Stone Circles in the UK To Visit Instead of ...2018-10-8 · The Avebury site consists of around 180 locally sourced Neolithic stones, and thanks to the National Trust, visitors can roam the three historic stone circles for free. Open In Google Maps. Avebury, Marlborough, England, SN8 1RF, United Kingdom. +443703331181. Visit …

List of Castles in England | A Gazetteer of English Castles

2022-2-13 · A comprehensive list of castles in England from the Britain Express castles guide, an A-Z gazetteer including history, beautiful photos, how to get there, and what to seeList of Old English Occupations and descriptionsgold england occupations, census occupations, explanation of old occupations, census, ... Below is a list of some of the more obscure occupations that you may find on the English Census during your genealogy research. The English census has been taken every 10 years since 1841 but, because they can not be viewed by the public for 100 years, we ...

Stones of England

2018-5-22 · Stone Circles: Standing Stones Stone Rows : Adam''s Grave Carn Euny Chûn Castle Chysauster East Kennet Maiden Castle Stoney Littleton Tregiffian Wayland''s Smithy West Kennet: Avebury Castlerigg Duloe The Hurlers Long Meg and Her Daughters Mên-an-Tol Merrivale Stone Circle The Merry Maidens Nine Stones The Rollright Stones Stanton Drew ...Stone Castles: The Grandest, Strongest Castles in the UK ...Rochester Castle was one of the first castles built in England – and made in stone. A Stone Castle Building Spree. The first – and most famous – stone castle was the White Tower of the Tower of London. This stone tower was begun in 1070, and …

England Dan Seals*

Analyzed: England Dan Seals / Stones [JP 1999 CD] DR Peak RMS Duration Track DR13 0.00 dB -16.93 dB 4:42 01-Stones (Dig A Little Deeper)Houses in England - projectbritain 2014-2-1 · Most houses in England are made of stone or brick from the local area where the houses are built. The colours of the stones and bricks vary across the country. Types of houses in England. England has many types of homes. In the …

Ancient standing stones in Britain

2  · The Stone of Scone is the stone that is incorporated into into the base of the Coronation Chair in Westminster Abbey. It was brought to the Abbey in 1296 by Edward I and all English kings and queens have been seated over the '' Stone …List of Sites in England - Megalithics2018-12-7 · Stone Circles : Altarnun (Nine Stones) VR Stone Circle: Cornwall: Arbor Low VR: Circle Henge: Derbyshire: Boscawen-Un VR Stone Circle: Cornwall

Birthstones Chart | Harriet Kelsall

Gemstones are associated with each month and each precious stone has designated qualities associated with it. The Traditional Birthstone list contains older birthstones and is sometimes combined with the modern birthstone list. These …England Dan Seals* - Stones | Releases | DiscogsAnalyzed: England Dan Seals / Stones [JP 1999 CD] DR Peak RMS Duration Track DR13 0.00 dB -16.93 dB 4:42 01-Stones (Dig A Little Deeper)

2019 Zoo New England Reciprocal List

2019-6-20 · Every year, Zoo New England participates in a reciprocal admission program, which allows ZNE members free or discounted admission to other zoos and aquariums with a valid membership card. This list is amended specifically for ZNE members. If you are a member of another institution and you wish to visit Franklin Park Zoo or Stone Zoo,Pottery - Ceramic Trade Marks - General Guide - The …2004-9-8 · (7) ''England'':- Inclusion of the word ''England'' in marks denotes a date after 1891, although some manufacturers (Thomas Elsmore & Sons for example) added the word slightly before this date. ''Made in England'' denotes a 20th-century date. It was William McKinley (the 25th president of the USA) who introduced the highly protectionist McKinley Tariff Act of 1890 - this …

Bookshops in the UK and Europe | Waterstones

Discover our full range of books, gifts, toys, stationery and audiobooks at Waterstones . Click & Collect within 2 hours or buy online with Free UK Delivery on Orders Over £25 st selling books | WaterstonesBrowse best selling books at Waterstones, the UK''s largest dedicated bookseller, all with FREE UK delivery on orders over £25.

Red list of countries and territories

2021-10-4 · 15 December 2021. There are currently no countries or territories on the red list for travel to England. 14 December 2021. Angola, Botswana, Eswatini, Lesotho, Malawi, Mozambique, Namibia, Nigeria ...Draft List | Stone BrewingDraft List Stone Brewing World Bistro & Gardens - Liberty Station. Draft List. Main Bar Tap/Cask List. 2014 Stone Old Guardian Barley Wine 11.6% ABV / American Barleywine. Stone Brewing Escondido, CA. Arrogant Bastard Ale 7.2% ABV / CLASSIFIED. Stone Brewing Escondido, CA. Bear Republic Racer 5 IPA

Standing stone on Brockrigg known as ...

List entry 1016541. Grade Not applicable to this List entry. Scheduled Monument: Standing Stone On Brockrigg Known As Wade''s Stone, 420M South East Of Brockrigg Farm. May include summary, reasons for designation and history.List of Gemstones: Precious and Semi-Precious Stones - …Traditionally, precious stones were the Big Four gemstones — diamonds, emeralds, rubies, and sapphires. Semi-precious stones were everything else. Today, gemologists don''t use these terms because they imply that some gems are better or worth more than others. In fact, some so-called semi-precious stones would be worth far more than so ...

Draft List | Stone Brewing

Draft List Stone Brewing World Bistro & Gardens - Liberty Station. Draft List. Main Bar Tap/Cask List. 2014 Stone Old Guardian Barley Wine 11.6% ABV / American Barleywine. Stone Brewing Escondido, CA. Arrogant Bastard Ale 7.2% ABV / CLASSIFIED. Stone Brewing Escondido, CA. Bear Republic Racer 5 IPABookshops in the UK and Europe | WaterstonesDiscover our full range of books, gifts, toys, stationery and audiobooks at Waterstones . Click & Collect within 2 hours or buy online with Free UK Delivery on Orders Over £25.

Birthstones Chart | Harriet Kelsall

Gemstones are associated with each month and each precious stone has designated qualities associated with it. The Traditional Birthstone list contains older birthstones and is sometimes combined with the modern birthstone list. These stones reflect societal birthstone traditions, heralding back to the 15th century.Draft List | Stone BrewingDraft List Stone Brewing World Bistro & Gardens - Liberty Station. Draft List. Main Bar Tap/Cask List. 2014 Stone Old Guardian Barley Wine 11.6% ABV / American Barleywine. Stone Brewing Escondido, CA. Arrogant Bastard Ale 7.2% ABV / CLASSIFIED. Stone Brewing Escondido, CA. Bear Republic Racer 5 IPA